ncis daredevil Star Trek Discovery mr robot en español dtone High Castle s03e07 0 Mile 22 2160p It 1080p 2018 Survivor the flash s05e03 ettv the good doctor supergirl the walking dead Flash great british bake off s09e09 DTOne better call saul etmovies 9-1-1 s02e04 1080p YIFY Vikings Manifest doctor who it 2017 shameless legends of tomorrow the walking dead s09e03 Supernatural this is us wwe incredibles 2 flash s05e03 NFL family guy hindi Ufc evo star trek discovery español big bang theory español venom fgt ethd Ethd Arrow s07e02 greys anatomy mayans season complete the big bang theory the flash american horror story Scorpion empire porn windows 10 Game Of Thrones lethal weapon lucifer south park ddr big bang theory Evo etrg arrow 2018 ita blindspot walking dead ita 
Warning! Do not Download Without a VPN!
Your IP Address is .   Location is
Download and surf securely, stream unlimited and protect your personal data!
We strongly recommend using SpyOFF VPN!
Become Anonymous with SpyOFF
ETTV Recommended TV Shows
SEAL.Team.S02E04.HDTV.x264-SHiTSPREAD[ettv] torrent
Greys.Anatomy.S15E05.HDTV.x264-KILLERS[ettv] torrent
American.Horror.Story.S08E07.WEBRip.x264-TBS[ettv] torrent
Wild.District-Season-1.2018.1080p.NF.WebDL.AVC.DD.5.1-DTOne torrent

ETTV Recommended Xvid
BlacKkKlansman.2018.HDRip.XViD.AC3-ETRG torrent
A.Happening.of.Monumental.Proportions.2018.HDRip.XViD-ETRG torrent
The.Wrong.Nanny.2017.HDRip.XViD-ETRG torrent
The.School.2018.BDRip.XviD.AC3-EVO torrent

ETTV Recommended HD
BlacKkKlansman.2018.1080p.WEB-DL.DD5.1.H264-CMRG[EtHD] torrent
Scorpion.King.The.Book.of.Souls.2018.1080p.WEB-DL.H264.AC3-EVO[EtHD] torrent
Mile.22.2018.1080p.HDRip.X264.AC3-EVO[EtHD] torrent
Welcome.Home.2018.1080p.WEB-DL.DD5.1.H264-CMRG[EtHD] torrent

ETTV Recommended UHD
Peter.Rabbit.2018.PLDUB.DUAL.2160p.UHD.BluRay.x265-FLAME[EtHD] torrent
Death.Wish.2018 BluRay 2160p DTS MA5 1 x265 10bit-CHD[EtHD] torrent
Mamma.Mia.Here.We.Go.Again.2018UHD.2160p.Bluray.Remux.HEVC.HDR.Atmos.7.1-DTOne torrent
Only.The.Brave.2017.UHD.2160p.Bluray.Remux.HEVC.HDR.Atmos.7.1-DTOne torrent

ETTV Recommended Cam
Bad Times at the El Royale 2018.HDCAM.XViD.AC3-ETRG torrent
Goosebumps 2 Haunted Halloween 2018 HDTS.x264.AC3-ETRG torrent
Halloween 2018.HDCAM.XViD.AC3-ETRG torrent
Night School 2018 HDTS XViD AC3-ETRG torrent

ETTV Recommended Foreign
Naa.Bangaaru.Talli.2013.1080p.NF.WebDL.AVC.DDP.5.1-DTOne torrent
Insidious The Last Key (2017) 1080p BluRay x264 Dual Audio [Hindi DD5.1 640 Kbps - English DD5.1] - MSUBS ~ Ranvijay torrent
Chotay Shah 2016 Hindi Untouched WebDL 1080p x264 - mkvCinemas torrent
Illang-The.Wolf.Brigade.2018.Multi.1080p.x264.NF.WebDL.DD5.1-DTOne torrent

Social


Download Torrent "The Leftovers (2014) Season 3 S03 (1080p BluRay x265 HEVC 10bit AAC 5.1 Sil..."

IMDB Details
Description:

Three years after the disappearance of 2% of the global population, a group of people from New York struggle to continue their lives, while they cope with the tragedy of the unexplained nature of the event.

Genre:

Drama, Fantasy, Mystery

Download Torrent (Magnet)
Download Torrent (File)
Seeds: 14
Leechers: 109
Completed: 17 
Last Checked: 29-01-2018 11:38:04


Details
Title:The Leftovers (2014) Season 3 S03 (1080p BluRay x265 HEVC 10bit AAC 5.1 Sil...
Description:



Encode Screenshots (Click for full quality)







Media Information
General

Format                                   : Matroska
Format version                           : Version 4 / Version 2
File size                                : 2.24 GiB
Duration                                 : 1 h 0 min
Overall bit rate                         : 5 317 kb/s
Encoded date                             : UTC 2018-01-28 16:22:54
Writing application                      : mkvmerge v9.6.0 ('Slave To Your Mind') 64bit
Writing library                          : libebml v1.3.4 + libmatroska v1.4.5
Writing frontend                         : StaxRip 1.5.0.0


Video

ID                                       : 1
Format                                   : HEVC
Format/Info                              : High Efficiency Video Coding
Format profile                           : Main [email protected]@Main
Codec ID                                 : V_MPEGH/ISO/HEVC
Duration                                 : 1 h 0 min
Bit rate                                 : 4 799 kb/s
Width                                    : 1 920 pixels
Height                                   : 1 080 pixels
Display aspect ratio                     : 16:9
Frame rate mode                          : Constant
Frame rate                               : 23.976 (24000/1001) FPS
Color space                              : YUV
Chroma subsampling                       : 4:2:0
Bit depth                                : 10 bits
Bits/(Pixel*Frame)                       : 0.097
Stream size                              : 2.02 GiB (90%)
Writing library                          : x265 2.6+32-b763c22920f6:[Windows][MSVC 1912][64 bit] 10bit
Encoding settings                        : cpuid=1173503 / frame-threads=4 / numa-pools=16 / wpp / no-pmode / no-pme / no-psnr / no-ssim / log-level=2 / input-csp=1 / input-res=1920x1080 / interlace=0 / total-frames=86843 / level-idc=0 / high-tier=1 / uhd-bd=0 / ref=5 / no-allow-non-conformance / no-repeat-headers / annexb / no-aud / no-hrd / info / hash=0 / no-temporal-layers / open-gop / min-keyint=23 / keyint=250 / gop-lookahead=0 / bframes=8 / b-adapt=2 / b-pyramid / bframe-bias=0 / rc-lookahead=80 / lookahead-slices=4 / scenecut=40 / radl=0 / no-intra-refresh / ctu=64 / min-cu-size=8 / rect / no-amp / max-tu-size=32 / tu-inter-depth=1 / tu-intra-depth=1 / limit-tu=0 / rdoq-level=0 / dynamic-rd=0.00 / no-ssim-rd / signhide / no-tskip / nr-intra=0 / nr-inter=0 / no-constrained-intra / strong-intra-smoothing / max-merge=3 / limit-refs=3 / limit-modes / me=3 / subme=5 / merange=57 / temporal-mvp / weightp / no-weightb / no-analyze-src-pics / deblock=-3:-3 / no-sao / no-sao-non-deblock / rd=4 / no-early-skip / no-rskip / no-fast-intra / no-tskip-fast / no-cu-lossless / no-b-intra / no-splitrd-skip / rdpenalty=0 / psy-rd=1.00 / psy-rdoq=0.00 / no-rd-refine / no-lossless / cbqpoffs=0 / crqpoffs=0 / rc=crf / crf=21.0 / qcomp=0.60 / qpstep=4 / stats-write=0 / stats-read=0 / ipratio=1.40 / pbratio=1.30 / aq-mode=3 / aq-strength=1.00 / cutree / zone-count=0 / no-strict-cbr / qg-size=32 / no-rc-grain / qpmax=69 / qpmin=0 / no-const-vbv / sar=0 / overscan=0 / videoformat=5 / range=0 / colorprim=2 / transfer=2 / colormatrix=2 / chromaloc=0 / display-window=0 / max-cll=0,0 / min-luma=0 / max-luma=1023 / log2-max-poc-lsb=8 / vui-timing-info / vui-hrd-info / slices=1 / no-opt-qp-pps / no-opt-ref-list-length-pps / no-multi-pass-opt-rps / scenecut-bias=0.05 / no-opt-cu-delta-qp / no-aq-motion / no-hdr / no-hdr-opt / no-dhdr10-opt / analysis-reuse-level=5 / scale-factor=0 / refine-intra=0 / refine-inter=0 / refine-mv=0 / no-limit-sao / ctu-info=0 / no-lowpass-dct / refine-mv-type=0 / copy-pic=1
Default                                  : Yes
Forced                                   : No


Audio

ID                                       : 2
Format                                   : AAC
Format/Info                              : Advanced Audio Codec
Format profile                           : LC
Codec ID                                 : A_AAC
Duration                                 : 1 h 0 min
Bit rate                                 : 422 kb/s
Channel(s)                               : 6 channels
Channel positions                        : Front: L C R, Side: L R, LFE
Sampling rate                            : 48.0 kHz
Frame rate                               : 46.875 FPS (1024 spf)
Compression mode                         : Lossy
Delay relative to video                  : 20 ms
Stream size                              : 182 MiB (8%)
Language                                 : English
Default                                  : Yes
Forced                                   : No


Subtitle #1

ID                                       : 3
Format                                   : PGS
Muxing mode                              : zlib
Codec ID                                 : S_HDMV/PGS
Codec ID/Info                            : Picture based subtitle format used on BDs/HD-DVDs
Duration                                 : 1 h 0 min
Bit rate                                 : 10.5 kb/s
Count of elements                        : 1458
Stream size                              : 4.49 MiB (0%)
Language                                 : English
Default                                  : No
Forced                                   : No


Subtitle #2

ID                                       : 4
Format                                   : PGS
Muxing mode                              : zlib
Codec ID                                 : S_HDMV/PGS
Codec ID/Info                            : Picture based subtitle format used on BDs/HD-DVDs
Duration                                 : 1 h 0 min
Bit rate                                 : 7 970 b/s
Count of elements                        : 1318
Stream size                              : 3.42 MiB (0%)
Language                                 : French
Default                                  : No
Forced                                   : No


Subtitle #3

ID                                       : 5
Format                                   : PGS
Muxing mode                              : zlib
Codec ID                                 : S_HDMV/PGS
Codec ID/Info                            : Picture based subtitle format used on BDs/HD-DVDs
Duration                                 : 1 h 0 min
Bit rate                                 : 9 668 b/s
Count of elements                        : 1492
Stream size                              : 4.15 MiB (0%)
Language                                 : Italian
Default                                  : No
Forced                                   : No


Subtitle #4

ID                                       : 6
Format                                   : PGS
Muxing mode                              : zlib
Codec ID                                 : S_HDMV/PGS
Codec ID/Info                            : Picture based subtitle format used on BDs/HD-DVDs
Duration                                 : 1 h 0 min
Bit rate                                 : 8 373 b/s
Count of elements                        : 1284
Stream size                              : 3.59 MiB (0%)
Language                                 : Spanish
Default                                  : No
Forced                                   : No


Subtitle #5

ID                                       : 7
Format                                   : PGS
Muxing mode                              : zlib
Codec ID                                 : S_HDMV/PGS
Codec ID/Info                            : Picture based subtitle format used on BDs/HD-DVDs
Duration                                 : 1 h 0 min
Bit rate                                 : 7 863 b/s
Count of elements                        : 1262
Stream size                              : 3.37 MiB (0%)
Language                                 : Dutch
Default                                  : No
Forced                                   : No


Subtitle #6

ID                                       : 8
Format                                   : PGS
Muxing mode                              : zlib
Codec ID                                 : S_HDMV/PGS
Codec ID/Info                            : Picture based subtitle format used on BDs/HD-DVDs
Duration                                 : 1 h 0 min
Bit rate                                 : 8 470 b/s
Count of elements                        : 1286
Stream size                              : 3.64 MiB (0%)
Language                                 : Spanish
Default                                  : No
Forced                                   : No


Subtitle #7

ID                                       : 9
Format                                   : PGS
Muxing mode                              : zlib
Codec ID                                 : S_HDMV/PGS
Codec ID/Info                            : Picture based subtitle format used on BDs/HD-DVDs
Duration                                 : 1 h 0 min
Bit rate                                 : 8 277 b/s
Count of elements                        : 1288
Stream size                              : 3.55 MiB (0%)
Language                                 : Portuguese
Default                                  : No
Forced                                   : No


Subtitle #8

ID                                       : 10
Format                                   : PGS
Muxing mode                              : zlib
Codec ID                                 : S_HDMV/PGS
Codec ID/Info                            : Picture based subtitle format used on BDs/HD-DVDs
Duration                                 : 1 h 0 min
Bit rate                                 : 8 231 b/s
Count of elements                        : 1280
Stream size                              : 3.53 MiB (0%)
Language                                 : Danish
Default                                  : No
Forced                                   : No


Subtitle #9

ID                                       : 11
Format                                   : PGS
Muxing mode                              : zlib
Codec ID                                 : S_HDMV/PGS
Codec ID/Info                            : Picture based subtitle format used on BDs/HD-DVDs
Duration                                 : 1 h 0 min
Bit rate                                 : 7 332 b/s
Count of elements                        : 1282
Stream size                              : 3.15 MiB (0%)
Language                                 : Finnish
Default                                  : No
Forced                                   : No


Subtitle #10

ID                                       : 12
Format                                   : PGS
Muxing mode                              : zlib
Codec ID                                 : S_HDMV/PGS
Codec ID/Info                            : Picture based subtitle format used on BDs/HD-DVDs
Duration                                 : 1 h 0 min
Bit rate                                 : 8 087 b/s
Count of elements                        : 1282
Stream size                              : 3.47 MiB (0%)
Language                                 : Norwegian Bokmal
Default                                  : No
Forced                                   : No


Subtitle #11

ID                                       : 13
Format                                   : PGS
Muxing mode                              : zlib
Codec ID                                 : S_HDMV/PGS
Codec ID/Info                            : Picture based subtitle format used on BDs/HD-DVDs
Duration                                 : 1 h 0 min
Bit rate                                 : 8 331 b/s
Count of elements                        : 1282
Stream size                              : 3.58 MiB (0%)
Language                                 : Swedish
Default                                  : No
Forced                                   : No


Menu

00:00:00.000                             : en:Chapter 1
00:00:08.008                             : en:Chapter 2
00:10:10.652                             : en:Chapter 3
00:19:44.183                             : en:Chapter 4
00:29:10.999                             : en:Chapter 5
00:40:03.067                             : en:Chapter 6
00:49:41.729                             : en:Chapter 7
00:58:45.147                             : en:Chapter 8



Source Information
Release :
The.Leftovers.S03.1080p.BluRay.REMUX.AVC.DTS-HD.MA.5.1-EPSiLON





Whilst we are happy for our releases to be re-posted on a platform we aren't on, please do so in a 'as-is' format. We ask that you do not create a new torrent, include all descriptions you see above including the QxR logo, tags, notes and screenshots. If you'd like to become a permanent poster on a website we don't post to, feel free to get in contact with a QxR member.

Category:TV > HEVC/x265
Lang:English  English
Total Size:17.14 GB
Info Hash:7f41ad2b54370ef802f685da757c9e51b4f0aa3c
Added By:QxR
Date Added:29-01-2018 11:38:00

Files

File List: 
 File Size
The Leftovers (2014) - S03E01 - The Book of Kevin (1080p BluRay x265 Silence).mkv2.24 GB
The Leftovers (2014) - S03E02 - Don't Be Ridiculous (1080p BluRay x265 Silence).mkv1.86 GB
The Leftovers (2014) - S03E03 - Crazy Whitefella Thinking (1080p BluRay x265 Silence).mkv2.55 GB
The Leftovers (2014) - S03E04 - G'Day Melbourne (1080p BluRay x265 Silence).mkv1.87 GB
The Leftovers (2014) - S03E05 - It's a Matt, Matt, Matt, Matt World (1080p BluRay x265 Silence).mkv1.86 GB
The Leftovers (2014) - S03E06 - Certified (1080p BluRay x265 Silence).mkv2.22 GB
The Leftovers (2014) - S03E07 - The Most Powerful Man in the World (and His Identical Twin Brother) (1080p BluRay x265 Silence).mkv1.94 GB
The Leftovers (2014) - S03E08 - The Book of Nora (1080p BluRay x265 Silence).mkv2.60 GB



Loading...
Comments

There are currently no comments. Be the first one to write something !

Disclaimer: None of the files shown here are actually hosted or transmitted by this server. The links are provided solely by this site's users. The site moderation is also a service provided by the site's users. The administrator of this site (ettv.tv) cannot be held responsible for what its users post, or any other actions of its users. You may not use this site to distribute or download any material when you do not have the legal rights to do so. It is your own responsibility to adhere to these terms.

Sitemap