1080p YIFY great british bake off s09e10 audiobook Vikings the flash ethd a discovery of witches hindi doctor who Star Trek discovery Survivor Greys Anatomy nfl empire fgt incredibles 2 2018 ITA blindspot venom LUCIFER arrow español doctor who s11e05 outlander 2018 movies titans Ncis WWE evo ddr Talking dead 2160p outlander S04E01 dtone It ita Game of thrones the big bang theory Supergirl S04E04 house of cards walking dead modern family 720p yify ettv The Walking dead ufc 230 the big bang theory s12e07 supernatural etrg 1080p 2018 last week tonight star trek discovery español The Predator supergirl the deuce etmovies shameless titans s01e04 arrow Gotham big bang theory van helsing the walking dead s09e05 big bang theory español 9-1-1.S01 the last ship ray donovan Dtone family guy 0 
Warning! Do not Download Without a VPN!
Your IP Address is .   Location is
Download and surf securely, stream unlimited and protect your personal data!
We strongly recommend using SpyOFF VPN!
Become Anonymous with SpyOFF
ETTV Recommended TV Shows
Arrow.S07E04.HDTV.x264-SVA[ettv] torrent
DCs.Legends.of.Tomorrow.S04E03.HDTV.x264-KILLERS[ettv] torrent
Manifest.S01E06.HDTV.x264-SVA[ettv] torrent
The.Good.Doctor.S02E06.WEB.H264-MEMENTO[ettv] torrent

ETTV Recommended Xvid
The Miseducation of Cameron Post.2018.HDRip.XviD.AC3-EVO[EtMovies] torrent
Kin.2018.HDRip.XViD-ETRG torrent
Blindspotting.2018.HDRip.XViD-ETRG torrent
Mission.Impossible.Fallout.2018.HDRip.XviD.AC3-EVO[EtMovies] torrent

ETTV Recommended HD
Crazy.Rich.Asians.2018.1080p.WEB-DL.DD5.1.H264-CMRG[EtHD] torrent
Alone.We.Fight.2018.1080p.WEB-DL.H264.AAC-EVO[EtHD] torrent
Dog.Days.2018.1080p.WEB-DL.H264.AC3-EVO[EtHD] torrent
Mission.Impossible.Fallout.2018.1080p.WEB-DL.DD5.1.H264-CMRG[EtHD] torrent

ETTV Recommended UHD
Men.in.Black.1997.Multi.UHD.2160p.Bluray.x265.HDR.Atmos.7.1-DTOne torrent
Men.in.Black.2.2002.Multi.UHD.2160p.Bluray.x265.HDR.Atmos.7.1-DTOne torrent
Men.In.Black.3.2012.Multi.UHD.2160p.Bluray.x265.HDR.Atmos.7.1-DTOne torrent
Saving.Private.Ryan.1998.Multi.UHD.2160p.BluRay.x265.HDR.Atmos.7.1-DTOne torrent

ETTV Recommended Cam
Replicas 2018.HDCAM.x264.AC3-ETRG torrent
Bohemian Rhapsody 2018 HDCAM.XViD.AC3-ETRG torrent
The Nutcracker and the Four Realms 2018 HDCAM x264 AC3-ETRG torrent
The House with a Clock in Its Walls 2018 720p HDCAM V2-1XBET torrent

ETTV Recommended Foreign
Genius (2018) 1080p WEBHD Untouched - DTOne torrent
5.Weddings.(2018).1CD.Desi.PDVDRIP.x264.AAC-[DTOne] torrent
NOTA (2018) [TAMIL(HQ)+TELUGU - 720p - HDRip - x264 - AAC - ESub - 2GB] - MAZE torrent
Street Lights (2018) [MALAYALAM - 720p - WEB HDRip - x264 - AAC - ESub - 2GB] - MAZE torrent

Social


Download Torrent "UnREAL (2015) Season 2 S02 (1080p WEB-DL x265 HEVC 10bit AAC 2.0 Vyndros) [..."

IMDB Details
Description:

A behind-the-scenes look at the chaos surrounding the production of a dating competition program.

Genre:

Drama

Download Torrent (Magnet)
Download Torrent (File)
Seeds: 192
Leechers: 111
Completed: 2,697 
Last Checked: 26-01-2018 14:46:11


Loading...
Details
Title:UnREAL (2015) Season 2 S02 (1080p WEB-DL x265 HEVC 10bit AAC 2.0 Vyndros) [...
Description:



Encode Screenshots (Click for full quality)









Media Information
General

Format                                   : Matroska
Format version                           : Version 4 / Version 2
File size                                : 627 MiB
Duration                                 : 42 min 26 s
Overall bit rate                         : 2 065 kb/s
Encoded date                             : UTC 2018-01-23 05:00:24
Writing application                      : mkvmerge v15.0.0 ('Duel with the Devil') 64-bit
Writing library                          : libebml v1.3.5 + libmatroska v1.4.5
Writing frontend                         : StaxRip v1.7.0.0


Video

ID                                       : 1
Format                                   : HEVC
Format/Info                              : High Efficiency Video Coding
Format profile                           : Main [email protected]@Main
Codec ID                                 : V_MPEGH/ISO/HEVC
Duration                                 : 42 min 26 s
Bit rate                                 : 1 836 kb/s
Width                                    : 1 920 pixels
Height                                   : 1 080 pixels
Display aspect ratio                     : 16:9
Frame rate mode                          : Constant
Frame rate                               : 23.976 (24000/1001) FPS
Color space                              : YUV
Chroma subsampling                       : 4:2:0
Bit depth                                : 10 bits
Bits/(Pixel*Frame)                       : 0.037
Stream size                              : 557 MiB (89%)
Writing library                          : x265 2.6+31-3712d13c09bf:[Windows][GCC 7.2.0][64 bit] 10bit
Encoding settings                        : cpuid=1173503 / frame-threads=2 / numa-pools=4 / wpp / no-pmode / no-pme / no-psnr / ssim / log-level=2 / input-csp=1 / input-res=1920x1080 / interlace=0 / total-frames=61049 / level-idc=0 / high-tier=1 / uhd-bd=0 / ref=3 / no-allow-non-conformance / no-repeat-headers / annexb / no-aud / no-hrd / info / hash=0 / no-temporal-layers / open-gop / min-keyint=23 / keyint=250 / gop-lookahead=0 / bframes=8 / b-adapt=2 / b-pyramid / bframe-bias=0 / rc-lookahead=50 / lookahead-slices=6 / scenecut=40 / radl=0 / no-intra-refresh / ctu=64 / min-cu-size=8 / no-rect / no-amp / max-tu-size=32 / tu-inter-depth=1 / tu-intra-depth=1 / limit-tu=0 / rdoq-level=0 / dynamic-rd=0.00 / no-ssim-rd / signhide / no-tskip / nr-intra=0 / nr-inter=0 / no-constrained-intra / no-strong-intra-smoothing / max-merge=3 / limit-refs=3 / no-limit-modes / me=3 / subme=3 / merange=57 / temporal-mvp / weightp / no-weightb / no-analyze-src-pics / deblock=0:0 / sao / no-sao-non-deblock / rd=3 / no-early-skip / no-rskip / no-fast-intra / no-tskip-fast / no-cu-lossless / no-b-intra / no-splitrd-skip / rdpenalty=0 / psy-rd=1.50 / psy-rdoq=0.00 / no-rd-refine / no-lossless / cbqpoffs=0 / crqpoffs=0 / rc=crf / crf=21.0 / qcomp=0.60 / qpstep=4 / stats-write=0 / stats-read=0 / ipratio=1.40 / pbratio=1.30 / aq-mode=3 / aq-strength=0.80 / cutree / zone-count=0 / no-strict-cbr / qg-size=32 / no-rc-grain / qpmax=69 / qpmin=0 / no-const-vbv / sar=0 / overscan=0 / videoformat=5 / range=0 / colorprim=2 / transfer=2 / colormatrix=2 / chromaloc=0 / display-window=0 / max-cll=0,0 / min-luma=0 / max-luma=1023 / log2-max-poc-lsb=8 / vui-timing-info / vui-hrd-info / slices=1 / no-opt-qp-pps / no-opt-ref-list-length-pps / no-multi-pass-opt-rps / scenecut-bias=0.05 / no-opt-cu-delta-qp / no-aq-motion / no-hdr / no-hdr-opt / no-dhdr10-opt / analysis-reuse-level=5 / scale-factor=0 / refine-intra=0 / refine-inter=0 / refine-mv=0 / no-limit-sao / ctu-info=0 / no-lowpass-dct / refine-mv-type=0 / copy-pic=1
Default                                  : Yes
Forced                                   : No


Audio

ID                                       : 2
Format                                   : AAC
Format/Info                              : Advanced Audio Codec
Format profile                           : LC
Codec ID                                 : A_AAC
Duration                                 : 42 min 26 s
Bit rate                                 : 226 kb/s
Channel(s)                               : 2 channels
Channel positions                        : Front: L R
Sampling rate                            : 48.0 kHz
Frame rate                               : 46.875 FPS (1024 spf)
Compression mode                         : Lossy
Stream size                              : 68.5 MiB (11%)
Language                                 : English
Default                                  : Yes
Forced                                   : Yes


Subtitle

ID                                       : 3
Format                                   : UTF-8
Codec ID                                 : S_TEXT/UTF8
Codec ID/Info                            : UTF-8 Plain Text
Duration                                 : 41 min 46 s
Bit rate                                 : 109 b/s
Count of elements                        : 1062
Stream size                              : 33.5 KiB (0%)
Language                                 : English
Default                                  : No
Forced                                   : No



Source Information
Release :
Amazon WEB-DL





Whilst we are happy for our releases to be re-posted on a platform we aren't on, please do so in a 'as-is' format. We ask that you do not create a new torrent, include all descriptions you see above including the QxR logo, tags, notes and screenshots. If you'd like to become a permanent poster on a website we don't post to, feel free to get in contact with a QxR member.

Category:TV > HEVC/x265
Lang:English  English
Total Size:6.14 GB
Info Hash:42bd6736566f64b2a547c74246abef9cb4ce8e26
Added By:QxR
Date Added:26-01-2018 14:46:07

Files

File List: 
 File Size
UnREAL (2015) - S02E01 - War (1080p AMZN WEB-DL x265 Vyndros).mkv627 MB
UnREAL (2015) - S02E02 - Insurgent (1080p AMZN WEB-DL x265 Vyndros).mkv610 MB
UnREAL (2015) - S02E03 - Guerilla (1080p AMZN WEB-DL x265 Vyndros).mkv666 MB
UnREAL (2015) - S02E04 - Treason (1080p AMZN WEB-DL x265 Vyndros).mkv676 MB
UnREAL (2015) - S02E05 - Infiltration (1080p AMZN WEB-DL x265 Vyndros).mkv657 MB
UnREAL (2015) - S02E06 - Casualty (1080p AMZN WEB-DL x265 Vyndros).mkv692 MB
UnREAL (2015) - S02E07 - Ambush (1080p AMZN WEB-DL x265 Vyndros).mkv549 MB
UnREAL (2015) - S02E08 - Fugitive (1080p AMZN WEB-DL x265 Vyndros).mkv568 MB
UnREAL (2015) - S02E09 - Espionage (1080p AMZN WEB-DL x265 Vyndros).mkv649 MB
UnREAL (2015) - S02E10 - Friendly Fire (1080p AMZN WEB-DL x265 Vyndros).mkv597 MB



Loading...
Comments

There are currently no comments. Be the first one to write something !

Disclaimer: None of the files shown here are actually hosted or transmitted by this server. The links are provided solely by this site's users. The site moderation is also a service provided by the site's users. The administrator of this site (ettv.tv) cannot be held responsible for what its users post, or any other actions of its users. You may not use this site to distribute or download any material when you do not have the legal rights to do so. It is your own responsibility to adhere to these terms.

Sitemap