ethd vikings Star Trek Discovery supernatural MODERN FAMILY 1080p 2018 0 ita 2018 dtone great british bake off s09e10 ita walking dead greys anatomy young sheldon S02E09 It 2160p The Big Bang Theory fgt seal team HINDI Mission Impossible Fallout Fear the walking dead origin better call saul titans s01e06 BBC Narcos survivor narcos mexico ddr Chicago Fire station 19 the good place ettv Avengers the flash Elementary titans arrow etrg nfl 1080p YIFY the big bang theory S12E09 big bang theory español flac american horror story s08e10 ufc Ray Donovan American Horror Story evo WINDOWS 10 big bang theory star trek discovery español supernatural s14e06 WWE 2018 ITA doctor who etmovies the walking dead six ncis Venom Game of Thrones 2018 movies xxx young sheldon 
Warning! Do not Download Without a VPN!
Your IP Address is .   Location is
Download and surf securely, stream unlimited and protect your personal data!
We strongly recommend using SpyOFF VPN!
Become Anonymous with SpyOFF
ETTV Recommended TV Shows
Midnight.Texas.S02E04.HDTV.x264-CRAVERS[ettv] torrent
MacGyver.2016.S03E08.WEB.x264-WEBSTER[ettv] torrent
Blue.Bloods.S09E08.WEB.x264-TBS[ettv] torrent
Blindspot.S04E06.HDTV.x264-CRAVERS[ettv] torrent

ETTV Recommended Xvid
The.Farm.2018.HDRip.XViD.AC3-ETRG torrent
The.Clovehitch.Killer.2018.HDRip.XviD.AC3-EVO[EtMovies] torrent
Speed.Kills.2018.HDRip.XViD-ETRG torrent
Blink.2018.HDRip.XviD.AC3-EVO[EtMovies] torrent

ETTV Recommended HD
Status.Update.2018.1080p.Bluray.x264.DTS HDMA.5.1-DTOne torrent
Zoe.2018.1080p.Bluray.x264.DTS-HRA.5.1-DTOne torrent
Blindspotting.2018.Multi.BluRay.1080p.x264.Atmos.7.1-DTOne torrent
Juliet.Naked.2018.Multi.1080p.Bluray.x264.DTS-HDMA.5.1-DTOne torrent

ETTV Recommended UHD
Cliffhanger.1993.Multi.2160p.UHD.BluRay.x265.HDR..DTS-5.11-DTOne torrent
Rambo.III.1987.Multi.UHD.2160p.Bluray.x265.HDR.DTS.5.1-DTOne torrent
Law.Abiding.Citizen.2009.Multi.UHD.2160p.Bluray.x265.HDR.DD.5.1-DTOne torrent
The.Equalizer-2.2018.UHD.2160p.BluRay.x265.HDR.DD.5.1-DTOne torrent

ETTV Recommended Cam
Night.School.2018.HDTS.x264.AC3-ETRG torrent
Bohemian Rhapsody 2018 720p HD-TS X264-Arahant torrent
Nobodys Fool 2018.HDCAM.x264.AC3-ETRG torrent
Fantastic Beasts The Crimes of Grindelwald 2018 NEW 720p HDCAM-SugarTiTS torrent

ETTV Recommended Foreign
Videoman.2018.1080p.BluRay.x264-APVRAL[EtHD] torrent
Le.Jeu.2018.MULTi.1080p.WEBRip.x264-BRiNK[EtHD] torrent
Tumbbad 2018 PreDvd Hindi 1Gb x264 AAC - mkvCinemas [Telly] torrent
Halkaa (2018) [HINDI - 720p - WEB HDRip - x264 - DD 5.1 - ESub - 2GB] - MAZE torrent

Social


Download Torrent "The Look of Silence (2014) + Extras (1080p BluRay x265 HEVC 10bit AAC 5.1 I..."

IMDB Details
Description:

N/A

Genre:

N/A

Download Torrent (Magnet)
Download Torrent (File)
Seeds: 1
Leechers: 0
Completed:
Last Checked: 17-11-2018 15:10:55


Loading...
Details
Title:The Look of Silence (2014) + Extras (1080p BluRay x265 HEVC 10bit AAC 5.1 I...
Description:


http://www.imdb.com/title/tt3521134/


Note from Encoder:
Previous encode had glitches / corrupt frames throughout the movie, this is encoded from new source



Encode Screenshots (Click for full quality)





Media Information
General
Format                                   : Matroska
Format version                           : Version 4 / Version 2
File size                                : 3.54 GiB
Duration                                 : 1 h 43 min
Overall bit rate                         : 4 900 kb/s
Encoded date                             : UTC 2018-11-15 09:12:31
Writing application                      : mkvmerge v20.0.0 ('I Am The Sun') 64-bit
Writing library                          : libebml v1.3.5 + libmatroska v1.4.8
Writing frontend                         : StaxRip v1.7.0.6

Video
ID                                       : 1
Format                                   : HEVC
Format/Info                              : High Efficiency Video Coding
Format profile                           : Main [email protected]@Main
Codec ID                                 : V_MPEGH/ISO/HEVC
Duration                                 : 1 h 43 min
Bit rate                                 : 4 497 kb/s
Width                                    : 1 920 pixels
Height                                   : 1 080 pixels
Display aspect ratio                     : 16:9
Frame rate mode                          : Constant
Frame rate                               : 23.976 (24000/1001) FPS
Color space                              : YUV
Chroma subsampling                       : 4:2:0
Bit depth                                : 10 bits
Bits/(Pixel*Frame)                       : 0.090
Stream size                              : 3.25 GiB (92%)
Writing library                          : x265 2.9+4-471726d3a046:[Windows][MSVC 1900][64 bit] 10bit
Encoding settings                        : cpuid=1111039 / frame-threads=3 / numa-pools=8 / wpp / no-pmode / no-pme / no-psnr / no-ssim / log-level=2 / input-csp=1 / input-res=1920x1080 / interlace=0 / total-frames=148786 / level-idc=0 / high-tier=1 / uhd-bd=0 / ref=5 / no-allow-non-conformance / no-repeat-headers / annexb / no-aud / no-hrd / info / hash=0 / no-temporal-layers / open-gop / min-keyint=23 / keyint=250 / gop-lookahead=0 / bframes=8 / b-adapt=2 / b-pyramid / bframe-bias=0 / rc-lookahead=60 / lookahead-slices=4 / scenecut=40 / radl=0 / no-intra-refresh / ctu=64 / min-cu-size=8 / rect / no-amp / max-tu-size=32 / tu-inter-depth=1 / tu-intra-depth=1 / limit-tu=0 / rdoq-level=2 / dynamic-rd=0.00 / no-ssim-rd / signhide / no-tskip / nr-intra=0 / nr-inter=0 / no-constrained-intra / strong-intra-smoothing / max-merge=3 / limit-refs=3 / limit-modes / me=3 / subme=5 / merange=57 / temporal-mvp / weightp / no-weightb / no-analyze-src-pics / deblock=-3:-3 / no-sao / no-sao-non-deblock / rd=4 / no-early-skip / rskip / no-fast-intra / no-tskip-fast / no-cu-lossless / no-b-intra / no-splitrd-skip / rdpenalty=0 / psy-rd=2.00 / psy-rdoq=1.00 / no-rd-refine / no-lossless / cbqpoffs=0 / crqpoffs=0 / rc=abr / bitrate=4500 / qcomp=0.60 / qpstep=4 / stats-write=0 / stats-read=2 / cplxblur=20.0 / qblur=0.5 / ipratio=1.40 / pbratio=1.30 / aq-mode=3 / aq-strength=1.00 / cutree / zone-count=0 / no-strict-cbr / qg-size=32 / no-rc-grain / qpmax=69 / qpmin=0 / no-const-vbv / sar=0 / overscan=0 / videoformat=5 / range=0 / colorprim=2 / transfer=2 / colormatrix=2 / chromaloc=0 / display-window=0 / max-cll=0,0 / min-luma=0 / max-luma=1023 / log2-max-poc-lsb=8 / vui-timing-info / vui-hrd-info / slices=1 / no-opt-qp-pps / no-opt-ref-list-length-pps / no-multi-pass-opt-rps / scenecut-bias=0.05 / no-opt-cu-delta-qp / no-aq-motion / no-hdr / no-hdr-opt / no-dhdr10-opt / no-idr-recovery-sei / analysis-reuse-level=5 / scale-factor=0 / refine-intra=0 / refine-inter=0 / refine-mv=0 / no-limit-sao / ctu-info=0 / no-lowpass-dct / refine-mv-type=0 / copy-pic=1 / max-ausize-factor=1.0 / no-dynamic-refine / no-single-sei
Default                                  : Yes
Forced                                   : No

Audio #1
ID                                       : 2
Format                                   : AAC
Format/Info                              : Advanced Audio Codec
Format profile                           : LC
Codec ID                                 : A_AAC
Duration                                 : 1 h 43 min
Bit rate                                 : 319 kb/s
Channel(s)                               : 6 channels
Channel positions                        : Front: L C R, Side: L R, LFE
Sampling rate                            : 48.0 kHz
Frame rate                               : 46.875 FPS (1024 spf)
Compression mode                         : Lossy
Delay relative to video                  : 20 ms
Stream size                              : 236 MiB (7%)
Language                                 : Indonesian
Default                                  : Yes
Forced                                   : No

Audio #2
ID                                       : 3
Format                                   : AAC
Format/Info                              : Advanced Audio Codec
Format profile                           : HE-AAC / LC
Codec ID                                 : A_AAC
Duration                                 : 1 h 43 min
Bit rate                                 : 80.0 kb/s
Channel(s)                               : 2 channels
Channel positions                        : Front: L R
Sampling rate                            : 48.0 kHz / 24.0 kHz
Frame rate                               : 23.438 FPS (1024 spf)
Compression mode                         : Lossy
Delay relative to video                  : 40 ms
Stream size                              : 59.2 MiB (2%)
Language                                 : English
Default                                  : No
Forced                                   : No

Subtitle
ID                                       : 4
Format                                   : VobSub
Muxing mode                              : zlib
Codec ID                                 : S_VOBSUB
Codec ID/Info                            : Picture based subtitle format used on DVDs
Duration                                 : 2 min 1 s
Bit rate                                 : 14.3 kb/s
Count of elements                        : 29
Stream size                              : 213 KiB (0%)
Language                                 : English
Default                                  : No
Forced                                   : Yes

Source Information
Release : Look.of.Silence.Remux.mkv



Note from QxR:
Whilst we are happy for our releases to be re-posted on a platform we aren't on, please do so in an 'as-is' format. We ask that you do not create a new torrent, include all descriptions you see above including the QxR logo, tags, notes and screenshots. If you'd like to become a permanent poster on a website we don't post to, feel free to get in contact with a QxR member.
Category:Movies > HEVC/x265
Lang:English  English
Total Size:5.60 GB
Info Hash:096fc9f8070734755ff54c4890f78958c77b568d
Added By:QxR
Date Added:17-11-2018 15:10:52

Files

File List: 
 File Size
Featurettes/A Conversation with Joshua Oppenheimer.mkv172 MB
Featurettes/Indonesia Premiere.mkv290 MB
Featurettes/Live Q&A with Joshua Oppenheimer hosted by Louis Theroux.mkv1.05 GB
Featurettes/Q&A at the 2015 Berlinale.mkv572 MB
The Look of Silence (2014) (1080p BluRay x265 Silence).mkv3.54 GB



Loading...
Comments

There are currently no comments. Be the first one to write something !

Disclaimer: None of the files shown here are actually hosted or transmitted by this server. The links are provided solely by this site's users. The site moderation is also a service provided by the site's users. The administrator of this site (ettv.tv) cannot be held responsible for what its users post, or any other actions of its users. You may not use this site to distribute or download any material when you do not have the legal rights to do so. It is your own responsibility to adhere to these terms.

Sitemap