the walking dead High Castle s03e07 etmovies doctor who s11e03 venom porn fgt ant man Lia M NASCAR Blindspot FEAR THE WALKING DEAD evo Greys Anatomy office 2019 WINDOWS 10 ncis the walking dead s09e03 Dtone 2018 ita vikings ethd 1080p 2018 "Alicia Monet" family guy 0 daredevil game of thrones ita formula 1 Lethal Weapon etrg modern family nfl Big bang theory Supergirl s04e02 supergirl the last ship ettv lopez nussa dtone shameless Survivor ddr arrow español wwe empire 2160p SUPERNATURAL hindi ita 2018 last week tonight lucifer season complete shameless s09e07 you walking dead the flash Better Call saul arrow Talking Dead american horror story girlsdoporn The Big Bang Theory 1080p YIFY doctor who incredibles 2 star trek discovery star trek discovery español 
Warning! Do not Download Without a VPN!
Your IP Address is .   Location is
Download and surf securely, stream unlimited and protect your personal data!
We strongly recommend using SpyOFF VPN!
Become Anonymous with SpyOFF
ETTV Recommended TV Shows
Arrow.S07E02.HDTV.x264-SVA[ettv] torrent
DCs.Legends.of.Tomorrow.S04E01.HDTV.x264-SVA[ettv] torrent
Magnum.P.I.2018.S01E05.HDTV.x264-SVA[ettv] torrent
Manifest.S01E05.HDTV.x264-KILLERS[ettv] torrent

ETTV Recommended Xvid
Mile.22.2018.HDRip.XviD.AC3-EVO[EtMovies] torrent
The.Scorpion.King.Book.of.Souls.2018.HDRip.XViD-ETRG torrent
BlacKkKlansman.2018.HDRip.XViD.AC3-ETRG torrent
A.Happening.of.Monumental.Proportions.2018.HDRip.XViD-ETRG torrent

ETTV Recommended HD
Thunder.Road.2018.1080p.WEB-DL.H264.AC3-EVO[EtHD] torrent
Incredibles.2.2018.1080p.WEB-DL.DD5.1.H264-CMRG[EtHD] torrent
BlacKkKlansman.2018.1080p.WEB-DL.DD5.1.H264-CMRG[EtHD] torrent
Scorpion.King.The.Book.of.Souls.2018.1080p.WEB-DL.H264.AC3-EVO[EtHD] torrent

ETTV Recommended UHD
Constantine.City.of.Demons.2018.2160p.BluRay.x265.10bit.HDR.DTS-HD.MA.5.1-SWTYBLZ[EtHD] torrent
Your.Name.2016.2160p.UHD.BluRay.x265-VALiS[EtHD] torrent
Peter.Rabbit.2018.PLDUB.DUAL.2160p.UHD.BluRay.x265-FLAME[EtHD] torrent
Death.Wish.2018 BluRay 2160p DTS MA5 1 x265 10bit-CHD[EtHD] torrent

ETTV Recommended Cam
Bad Times at the El Royale 2018.HDCAM.XViD.AC3-ETRG torrent
Goosebumps 2 Haunted Halloween 2018 HDTS.x264.AC3-ETRG torrent
Halloween 2018.HDCAM.XViD.AC3-ETRG torrent
Night School 2018 HDTS XViD AC3-ETRG torrent

ETTV Recommended Foreign
The.Night.Comes.For.Us.2018.1080p.NF.WEB-DL.DD5.1.H264-CMRG[EtHD] torrent
Rangasthalam (2018) [TELUGU - 720p - WEB HDRip - x264 - DD 5.1 - ESub - 2GB] - MAZE torrent
The Avengers Trilogy (2012-2018) 1080p BluRay x264 Dual Audio [Hindi - English] DD5.1 - ESUB ~ Ranvijay torrent
Naa.Bangaaru.Talli.2013.1080p.NF.WebDL.AVC.DDP.5.1-DTOne torrent

Social


Download Torrent "Skyscraper (2018) (2160p BluRay x265 HEVC 10bit AAC 7.1 FS90 Joy) [UTR]"

IMDB Details
Description:

N/A

Genre:

N/A

Download Torrent (Magnet)
Download Torrent (File)
Seeds: 551
Leechers: 331
Completed: 3,830 
Last Checked: 04-10-2018 18:01:50


Loading...
Details
Title:Skyscraper (2018) (2160p BluRay x265 HEVC 10bit AAC 7.1 FS90 Joy) [UTR]
Description:






Media Information
General
Format                                   : Matroska
Format version                           : Version 4 / Version 2
File size                                : 4.65 GiB
Duration                                 : 2 h 32 min
Overall bit rate                         : 4 360 kb/s
Movie name                               : Skyscraper 2018  (2160p x265 10bit FS90 Joy)[UTR]
Encoded date                             : UTC 2018-10-03 16:27:56
Writing application                      : mkvmerge v24.0.0 ('Beyond The Pale') 64-bit
Writing library                          : libebml v1.3.6 + libmatroska v1.4.9
Cover                                    : Yes
Attachments                              : cover.jpg
Writing frontend                         : StaxRip v1.8.2.0

Video
ID                                       : 1
Format                                   : HEVC
Format/Info                              : High Efficiency Video Coding
Format profile                           : Main [email protected]@Main
Codec ID                                 : V_MPEGH/ISO/HEVC
Duration                                 : 1 h 42 min
Bit rate                                 : 5 997 kb/s
Width                                    : 3 840 pixels
Height                                   : 1 600 pixels
Display aspect ratio                     : 2.40:1
Frame rate mode                          : Constant
Frame rate                               : 23.976 (24000/1001) FPS
Color space                              : YUV
Chroma subsampling                       : 4:2:0
Bit depth                                : 10 bits
Bits/(Pixel*Frame)                       : 0.041
Stream size                              : 4.29 GiB (92%)
Writing library                          : x265 2.8+19-bcdc610cf5f0:[Windows][MSVC 1914][64 bit] 10bit
Encoding settings                        : cpuid=1111039 / frame-threads=4 / numa-pools=16 / wpp / no-pmode / no-pme / no-psnr / ssim / log-level=2 / input-csp=1 / input-res=3840x1600 / interlace=0 / total-frames=147319 / level-idc=0 / high-tier=1 / uhd-bd=0 / ref=3 / no-allow-non-conformance / no-repeat-headers / annexb / no-aud / no-hrd / info / hash=0 / no-temporal-layers / open-gop / min-keyint=23 / keyint=250 / gop-lookahead=0 / bframes=8 / b-adapt=2 / b-pyramid / bframe-bias=0 / rc-lookahead=20 / lookahead-slices=8 / scenecut=40 / radl=0 / no-intra-refresh / ctu=64 / min-cu-size=8 / no-rect / no-amp / max-tu-size=32 / tu-inter-depth=1 / tu-intra-depth=1 / limit-tu=0 / rdoq-level=1 / dynamic-rd=4.00 / ssim-rd / signhide / no-tskip / nr-intra=0 / nr-inter=0 / no-constrained-intra / strong-intra-smoothing / max-merge=2 / limit-refs=3 / no-limit-modes / me=1 / subme=2 / merange=57 / temporal-mvp / weightp / weightb / analyze-src-pics / deblock=0:0 / sao / sao-non-deblock / rd=3 / no-early-skip / rskip / no-fast-intra / no-tskip-fast / no-cu-lossless / b-intra / no-splitrd-skip / rdpenalty=0 / psy-rd=0.00 / psy-rdoq=0.00 / no-rd-refine / no-lossless / cbqpoffs=0 / crqpoffs=0 / rc=abr / bitrate=6000 / qcomp=0.60 / qpstep=4 / stats-write=0 / stats-read=2 / cplxblur=20.0 / qblur=0.5 / vbv-maxrate=12000 / vbv-bufsize=24000 / vbv-init=0.9 / ipratio=1.40 / pbratio=1.30 / aq-mode=3 / aq-strength=1.00 / cutree / zone-count=0 / no-strict-cbr / qg-size=32 / no-rc-grain / qpmax=69 / qpmin=0 / no-const-vbv / sar=0 / overscan=0 / videoformat=5 / range=0 / colorprim=2 / transfer=2 / colormatrix=2 / chromaloc=0 / display-window=0 / max-cll=0,0 / min-luma=0 / max-luma=1023 / log2-max-poc-lsb=8 / vui-timing-info / vui-hrd-info / slices=1 / no-opt-qp-pps / no-opt-ref-list-length-pps / multi-pass-opt-rps / scenecut-bias=0.05 / no-opt-cu-delta-qp / no-aq-motion / no-hdr / no-hdr-opt / no-dhdr10-opt / no-idr-recovery-sei / analysis-reuse-level=10 / scale-factor=0 / refine-intra=0 / refine-inter=0 / refine-mv=0 / limit-sao / ctu-info=0 / no-lowpass-dct / refine-mv-type=0 / copy-pic=1 / max-ausize-factor=1.0 / no-dynamic-refine / no-single-sei
Default                                  : Yes
Forced                                   : No

Audio #1
ID                                       : 2
Format                                   : AAC
Format/Info                              : Advanced Audio Codec
Format profile                           : LC
Codec ID                                 : A_AAC
Duration                                 : 1 h 42 min
Bit rate                                 : 443 kb/s
Channel(s)                               : 7 channels
Channel(s)_Original                      : 8 channels
Channel positions                        : Front: L C R, Side: L R, Back: L R, LFE
Sampling rate                            : 48.0 kHz
Frame rate                               : 46.875 FPS (1024 spf)
Compression mode                         : Lossy
Delay relative to video                  : 9 ms
Stream size                              : 324 MiB (7%)
Language                                 : English
Default                                  : No
Forced                                   : No

Audio #2
ID                                       : 3
Format                                   : AAC
Format/Info                              : Advanced Audio Codec
Format profile                           : HE-AAC / LC
Codec ID                                 : A_AAC
Duration                                 : 1 h 42 min
Bit rate                                 : 45.8 kb/s
Channel(s)                               : 2 channels
Channel positions                        : Front: L R
Sampling rate                            : 48.0 kHz / 24.0 kHz
Frame rate                               : 23.438 FPS (1024 spf)
Compression mode                         : Lossy
Delay relative to video                  : 31 ms
Stream size                              : 33.5 MiB (1%)
Title                                    : Commentary by Director Rawson Marshall Thurber
Language                                 : English
Default                                  : No
Forced                                   : No

Subtitle #1
ID                                       : 4
Format                                   : VobSub
Muxing mode                              : zlib
Codec ID                                 : S_VOBSUB
Codec ID/Info                            : Picture based subtitle format used on DVDs
Duration                                 : 1 h 32 min
Bit rate                                 : 10.5 kb/s
Count of elements                        : 1324
Stream size                              : 6.90 MiB (0%)
Language                                 : English
Default                                  : No
Forced                                   : No

Subtitle #2
ID                                       : 5
Format                                   : VobSub
Muxing mode                              : zlib
Codec ID                                 : S_VOBSUB
Codec ID/Info                            : Picture based subtitle format used on DVDs
Duration                                 : 1 h 41 min
Bit rate                                 : 7 003 b/s
Count of elements                        : 1078
Stream size                              : 5.08 MiB (0%)
Language                                 : French
Default                                  : No
Forced                                   : No

Subtitle #3
ID                                       : 6
Format                                   : VobSub
Muxing mode                              : zlib
Codec ID                                 : S_VOBSUB
Codec ID/Info                            : Picture based subtitle format used on DVDs
Duration                                 : 1 h 41 min
Bit rate                                 : 6 636 b/s
Count of elements                        : 1119
Stream size                              : 4.81 MiB (0%)
Language                                 : Spanish
Default                                  : No
Forced                                   : No

Subtitle #4
ID                                       : 7
Format                                   : UTF-8
Codec ID                                 : S_TEXT/UTF8
Codec ID/Info                            : UTF-8 Plain Text
Duration                                 : 1 h 42 min
Bit rate                                 : 94 b/s
Count of elements                        : 1215
Stream size                              : 71.1 KiB (0%)
Language                                 : Arabic
Default                                  : No
Forced                                   : No

Subtitle #5
ID                                       : 8
Format                                   : UTF-8
Codec ID                                 : S_TEXT/UTF8
Codec ID/Info                            : UTF-8 Plain Text
Duration                                 : 1 h 38 min
Bit rate                                 : 107 b/s
Count of elements                        : 1137
Stream size                              : 77.8 KiB (0%)
Language                                 : Bengali
Default                                  : No
Forced                                   : No

Subtitle #6
ID                                       : 9
Format                                   : UTF-8
Codec ID                                 : S_TEXT/UTF8
Codec ID/Info                            : UTF-8 Plain Text
Duration                                 : 1 h 41 min
Bit rate                                 : 34 b/s
Count of elements                        : 764
Stream size                              : 26.1 KiB (0%)
Language                                 : Danish
Default                                  : No
Forced                                   : No

Subtitle #7
ID                                       : 10
Format                                   : UTF-8
Codec ID                                 : S_TEXT/UTF8
Codec ID/Info                            : UTF-8 Plain Text
Duration                                 : 1 h 31 min
Bit rate                                 : 75 b/s
Count of elements                        : 1100
Stream size                              : 50.5 KiB (0%)
Language                                 : Persian
Default                                  : No
Forced                                   : No

Subtitle #8
ID                                       : 11
Format                                   : UTF-8
Codec ID                                 : S_TEXT/UTF8
Codec ID/Info                            : UTF-8 Plain Text
Duration                                 : 1 h 31 min
Bit rate                                 : 39 b/s
Count of elements                        : 1057
Stream size                              : 26.3 KiB (0%)
Language                                 : Japanese
Default                                  : No
Forced                                   : No

Subtitle #9
ID                                       : 12
Format                                   : UTF-8
Codec ID                                 : S_TEXT/UTF8
Codec ID/Info                            : UTF-8 Plain Text
Duration                                 : 1 h 42 min
Bit rate                                 : 78 b/s
Count of elements                        : 1074
Stream size                              : 58.7 KiB (0%)
Language                                 : Thai
Default                                  : No
Forced                                   : No

Subtitle #10
ID                                       : 13
Format                                   : UTF-8
Codec ID                                 : S_TEXT/UTF8
Codec ID/Info                            : UTF-8 Plain Text
Duration                                 : 2 h 32 min
Bit rate                                 : 32 b/s
Count of elements                        : 1051
Stream size                              : 36.8 KiB (0%)
Language                                 : Vietnamese
Default                                  : No
Forced                                   : No

Menu
00:00:00.000                             : en:Chapter 01
00:04:24.764                             : en:Chapter 02
00:10:07.357                             : en:Chapter 03
00:16:09.927                             : en:Chapter 04
00:21:12.605                             : en:Chapter 05
00:25:34.992                             : en:Chapter 06
00:30:11.727                             : en:Chapter 07
00:35:23.913                             : en:Chapter 08
00:40:07.113                             : en:Chapter 09
00:47:18.961                             : en:Chapter 10
00:52:10.252                             : en:Chapter 11
00:58:16.785                             : en:Chapter 12
01:02:02.969                             : en:Chapter 13
01:05:29.634                             : en:Chapter 14
01:09:59.404                             : en:Chapter 15
01:14:31.425                             : en:Chapter 16
01:17:18.259                             : en:Chapter 17
01:23:33.342                             : en:Chapter 18
01:27:46.219                             : en:Chapter 19
01:32:54.569                             : en:Chapter 20

Source Information
Release: Skyscraper.2018.UHD.BluRay.2160p.TrueHD.Atmos.7.1.HEVC.REMUX-FraMeSToR (52.06 GBs)


UTR wrote:

Note From UTR
We have no issue with individuals posting or re-uploading our torrents on a platform we aren't on. However, if this is something you'd like to do, please do so in a 'as-is' format. We ask that you do not create a new torrent, include all descriptions you see above including the UTR logo, tags, notes and screenshots. If you'd like to become a permanent poster on a website we don't post to, feel free to get in contact with a UniTeam member.

If possible please donate: BTC 1QA5fum5AyXvWzdVCkQzUNvw3Ef15fHRaR



Category:Movies > HEVC/x265
Lang:English  English
Total Size:4.65 GB
Info Hash:c0072697f178ff9262304401a3b97e5dc7406564
Added By:UTR
Date Added:04-10-2018 18:01:42

Files

File List: 
 File Size
Skyscraper 2018 (2160p x265 10bit FS90 Joy).mkv4.65 GB



Loading...
Comments

There are currently no comments. Be the first one to write something !

Disclaimer: None of the files shown here are actually hosted or transmitted by this server. The links are provided solely by this site's users. The site moderation is also a service provided by the site's users. The administrator of this site (ettv.tv) cannot be held responsible for what its users post, or any other actions of its users. You may not use this site to distribute or download any material when you do not have the legal rights to do so. It is your own responsibility to adhere to these terms.

Sitemap