the walking dead High Castle s03e07 etmovies doctor who s11e03 venom porn fgt ant man Lia M NASCAR Blindspot FEAR THE WALKING DEAD evo Greys Anatomy office 2019 WINDOWS 10 ncis the walking dead s09e03 Dtone 2018 ita vikings ethd 1080p 2018 "Alicia Monet" family guy 0 daredevil game of thrones ita formula 1 Lethal Weapon etrg modern family nfl Big bang theory Supergirl s04e02 supergirl the last ship ettv lopez nussa dtone shameless Survivor ddr arrow español wwe empire 2160p SUPERNATURAL hindi ita 2018 last week tonight lucifer season complete shameless s09e07 you walking dead the flash Better Call saul arrow Talking Dead american horror story girlsdoporn The Big Bang Theory 1080p YIFY doctor who incredibles 2 star trek discovery star trek discovery español 
Warning! Do not Download Without a VPN!
Your IP Address is .   Location is
Download and surf securely, stream unlimited and protect your personal data!
We strongly recommend using SpyOFF VPN!
Become Anonymous with SpyOFF
ETTV Recommended TV Shows
Arrow.S07E02.HDTV.x264-SVA[ettv] torrent
DCs.Legends.of.Tomorrow.S04E01.HDTV.x264-SVA[ettv] torrent
Magnum.P.I.2018.S01E05.HDTV.x264-SVA[ettv] torrent
Manifest.S01E05.HDTV.x264-KILLERS[ettv] torrent

ETTV Recommended Xvid
Mile.22.2018.HDRip.XviD.AC3-EVO[EtMovies] torrent
The.Scorpion.King.Book.of.Souls.2018.HDRip.XViD-ETRG torrent
BlacKkKlansman.2018.HDRip.XViD.AC3-ETRG torrent
A.Happening.of.Monumental.Proportions.2018.HDRip.XViD-ETRG torrent

ETTV Recommended HD
Incredibles.2.2018.1080p.WEB-DL.DD5.1.H264-CMRG[EtHD] torrent
BlacKkKlansman.2018.1080p.WEB-DL.DD5.1.H264-CMRG[EtHD] torrent
Scorpion.King.The.Book.of.Souls.2018.1080p.WEB-DL.H264.AC3-EVO[EtHD] torrent
Mile.22.2018.1080p.HDRip.X264.AC3-EVO[EtHD] torrent

ETTV Recommended UHD
Constantine.City.of.Demons.2018.2160p.BluRay.x265.10bit.HDR.DTS-HD.MA.5.1-SWTYBLZ[EtHD] torrent
Your.Name.2016.2160p.UHD.BluRay.x265-VALiS[EtHD] torrent
Peter.Rabbit.2018.PLDUB.DUAL.2160p.UHD.BluRay.x265-FLAME[EtHD] torrent
Death.Wish.2018 BluRay 2160p DTS MA5 1 x265 10bit-CHD[EtHD] torrent

ETTV Recommended Cam
Bad Times at the El Royale 2018.HDCAM.XViD.AC3-ETRG torrent
Goosebumps 2 Haunted Halloween 2018 HDTS.x264.AC3-ETRG torrent
Halloween 2018.HDCAM.XViD.AC3-ETRG torrent
Night School 2018 HDTS XViD AC3-ETRG torrent

ETTV Recommended Foreign
The Avengers Trilogy (2012-2018) 1080p BluRay x264 Dual Audio [Hindi - English] DD5.1 - ESUB ~ Ranvijay torrent
Naa.Bangaaru.Talli.2013.1080p.NF.WebDL.AVC.DDP.5.1-DTOne torrent
Insidious The Last Key (2017) 1080p BluRay x264 Dual Audio [Hindi DD5.1 640 Kbps - English DD5.1] - MSUBS ~ Ranvijay torrent
Chotay Shah 2016 Hindi Untouched WebDL 1080p x264 - mkvCinemas torrent

Social


Download Torrent "Clear and Present Danger (1994) 2160p BluRay x265 HEVC AAC 5.1 10bit Joy) [..."

IMDB Details
Description:

N/A

Genre:

N/A

Download Torrent (Magnet)
Seeds: 87
Leechers: 58
Completed: 926 
Last Checked: 30-09-2018 08:34:56


Loading...
Details
Title:Clear and Present Danger (1994) 2160p BluRay x265 HEVC AAC 5.1 10bit Joy) [...
Description:




Media Information
General
Format                                   : Matroska
Format version                           : Version 4 / Version 2
File size                                : 6.39 GiB
Duration                                 : 2 h 21 min
Overall bit rate                         : 6 474 kb/s
Movie name                               : Clear and Present Danger 1994  (2160p x265 10bit FS80 Joy)[UTR]
Encoded date                             : UTC 2018-09-28 20:02:22
Writing application                      : mkvmerge v24.0.0 ('Beyond The Pale') 64-bit
Writing library                          : libebml v1.3.6 + libmatroska v1.4.9
Cover                                    : Yes
Attachments                              : cover.jpg
Writing frontend                         : StaxRip v1.8.2.0

Video
ID                                       : 1
Format                                   : HEVC
Format/Info                              : High Efficiency Video Coding
Format profile                           : Main [email protected]@Main
Codec ID                                 : V_MPEGH/ISO/HEVC
Duration                                 : 2 h 21 min
Bit rate                                 : 5 997 kb/s
Width                                    : 3 840 pixels
Height                                   : 1 600 pixels
Display aspect ratio                     : 2.40:1
Frame rate mode                          : Constant
Frame rate                               : 23.976 (24000/1001) FPS
Color space                              : YUV
Chroma subsampling                       : 4:2:0
Bit depth                                : 10 bits
Bits/(Pixel*Frame)                       : 0.041
Stream size                              : 5.92 GiB (93%)
Writing library                          : x265 2.8+19-bcdc610cf5f0:[Windows][MSVC 1914][64 bit] 10bit
Encoding settings                        : cpuid=1111039 / frame-threads=4 / numa-pools=16 / wpp / no-pmode / no-pme / no-psnr / ssim / log-level=2 / input-csp=1 / input-res=3840x1600 / interlace=0 / total-frames=203169 / level-idc=0 / high-tier=1 / uhd-bd=0 / ref=3 / no-allow-non-conformance / no-repeat-headers / annexb / no-aud / no-hrd / info / hash=0 / no-temporal-layers / open-gop / min-keyint=23 / keyint=250 / gop-lookahead=0 / bframes=8 / b-adapt=2 / b-pyramid / bframe-bias=0 / rc-lookahead=20 / lookahead-slices=8 / scenecut=40 / radl=0 / no-intra-refresh / ctu=64 / min-cu-size=8 / no-rect / no-amp / max-tu-size=32 / tu-inter-depth=1 / tu-intra-depth=1 / limit-tu=0 / rdoq-level=1 / dynamic-rd=4.00 / ssim-rd / signhide / no-tskip / nr-intra=0 / nr-inter=0 / no-constrained-intra / strong-intra-smoothing / max-merge=2 / limit-refs=3 / no-limit-modes / me=1 / subme=2 / merange=57 / temporal-mvp / weightp / weightb / analyze-src-pics / deblock=0:0 / sao / sao-non-deblock / rd=3 / no-early-skip / rskip / no-fast-intra / no-tskip-fast / no-cu-lossless / b-intra / no-splitrd-skip / rdpenalty=0 / psy-rd=0.00 / psy-rdoq=0.00 / no-rd-refine / no-lossless / cbqpoffs=0 / crqpoffs=0 / rc=abr / bitrate=6000 / qcomp=0.60 / qpstep=4 / stats-write=0 / stats-read=2 / cplxblur=20.0 / qblur=0.5 / vbv-maxrate=12000 / vbv-bufsize=24000 / vbv-init=0.9 / ipratio=1.40 / pbratio=1.30 / aq-mode=3 / aq-strength=1.00 / cutree / zone-count=0 / no-strict-cbr / qg-size=32 / no-rc-grain / qpmax=69 / qpmin=0 / no-const-vbv / sar=0 / overscan=0 / videoformat=5 / range=0 / colorprim=2 / transfer=2 / colormatrix=2 / chromaloc=0 / display-window=0 / max-cll=0,0 / min-luma=0 / max-luma=1023 / log2-max-poc-lsb=8 / vui-timing-info / vui-hrd-info / slices=1 / no-opt-qp-pps / no-opt-ref-list-length-pps / multi-pass-opt-rps / scenecut-bias=0.05 / no-opt-cu-delta-qp / no-aq-motion / no-hdr / no-hdr-opt / no-dhdr10-opt / no-idr-recovery-sei / analysis-reuse-level=10 / scale-factor=0 / refine-intra=0 / refine-inter=0 / refine-mv=0 / limit-sao / ctu-info=0 / no-lowpass-dct / refine-mv-type=0 / copy-pic=1 / max-ausize-factor=1.0 / no-dynamic-refine / no-single-sei
Default                                  : Yes
Forced                                   : No

Audio
ID                                       : 2
Format                                   : AAC
Format/Info                              : Advanced Audio Codec
Format profile                           : LC
Codec ID                                 : A_AAC
Duration                                 : 2 h 21 min
Bit rate                                 : 336 kb/s
Channel(s)                               : 6 channels
Channel positions                        : Front: L C R, Side: L R, LFE
Sampling rate                            : 48.0 kHz
Frame rate                               : 46.875 FPS (1024 spf)
Compression mode                         : Lossy
Delay relative to video                  : 9 ms
Stream size                              : 340 MiB (5%)
Language                                 : English
Default                                  : No
Forced                                   : No

Subtitle #1
ID                                       : 3
Format                                   : UTF-8
Codec ID                                 : S_TEXT/UTF8
Codec ID/Info                            : UTF-8 Plain Text
Duration                                 : 2 h 14 min
Bit rate                                 : 51 b/s
Count of elements                        : 1569
Stream size                              : 50.3 KiB (0%)
Language                                 : English
Default                                  : No
Forced                                   : No

Subtitle #2
ID                                       : 4
Format                                   : VobSub
Muxing mode                              : zlib
Codec ID                                 : S_VOBSUB
Codec ID/Info                            : Picture based subtitle format used on DVDs
Duration                                 : 2 h 14 min
Bit rate                                 : 8 444 b/s
Count of elements                        : 1569
Stream size                              : 8.14 MiB (0%)
Language                                 : English
Default                                  : No
Forced                                   : No

Subtitle #3
ID                                       : 5
Format                                   : VobSub
Muxing mode                              : zlib
Codec ID                                 : S_VOBSUB
Codec ID/Info                            : Picture based subtitle format used on DVDs
Duration                                 : 2 h 14 min
Bit rate                                 : 8 982 b/s
Count of elements                        : 1672
Stream size                              : 8.66 MiB (0%)
Language                                 : English
Default                                  : No
Forced                                   : No

Subtitle #4
ID                                       : 6
Format                                   : VobSub
Muxing mode                              : zlib
Codec ID                                 : S_VOBSUB
Codec ID/Info                            : Picture based subtitle format used on DVDs
Duration                                 : 2 h 15 min
Bit rate                                 : 4 718 b/s
Count of elements                        : 1485
Stream size                              : 4.57 MiB (0%)
Language                                 : Arabic
Default                                  : No
Forced                                   : No

Subtitle #5
ID                                       : 7
Format                                   : VobSub
Muxing mode                              : zlib
Codec ID                                 : S_VOBSUB
Codec ID/Info                            : Picture based subtitle format used on DVDs
Duration                                 : 2 h 19 min
Bit rate                                 : 8 924 b/s
Count of elements                        : 1480
Stream size                              : 8.93 MiB (0%)
Language                                 : Malay
Default                                  : No
Forced                                   : No

Subtitle #6
ID                                       : 8
Format                                   : VobSub
Muxing mode                              : zlib
Codec ID                                 : S_VOBSUB
Codec ID/Info                            : Picture based subtitle format used on DVDs
Duration                                 : 2 h 15 min
Bit rate                                 : 6 068 b/s
Count of elements                        : 1486
Stream size                              : 5.87 MiB (0%)
Language                                 : Chinese
Default                                  : No
Forced                                   : No

Subtitle #7
ID                                       : 9
Format                                   : VobSub
Muxing mode                              : zlib
Codec ID                                 : S_VOBSUB
Codec ID/Info                            : Picture based subtitle format used on DVDs
Duration                                 : 2 h 15 min
Bit rate                                 : 7 643 b/s
Count of elements                        : 1477
Stream size                              : 7.40 MiB (0%)
Language                                 : Czech
Default                                  : No
Forced                                   : No

Subtitle #8
ID                                       : 10
Format                                   : VobSub
Muxing mode                              : zlib
Codec ID                                 : S_VOBSUB
Codec ID/Info                            : Picture based subtitle format used on DVDs
Duration                                 : 2 h 19 min
Bit rate                                 : 6 782 b/s
Count of elements                        : 1086
Stream size                              : 6.79 MiB (0%)
Language                                 : Danish
Default                                  : No
Forced                                   : No

Subtitle #9
ID                                       : 11
Format                                   : VobSub
Muxing mode                              : zlib
Codec ID                                 : S_VOBSUB
Codec ID/Info                            : Picture based subtitle format used on DVDs
Duration                                 : 2 h 19 min
Bit rate                                 : 7 164 b/s
Count of elements                        : 1103
Stream size                              : 7.17 MiB (0%)
Language                                 : German
Default                                  : No
Forced                                   : No

Subtitle #10
ID                                       : 12
Format                                   : VobSub
Muxing mode                              : zlib
Codec ID                                 : S_VOBSUB
Codec ID/Info                            : Picture based subtitle format used on DVDs
Duration                                 : 2 h 15 min
Bit rate                                 : 8 493 b/s
Count of elements                        : 1518
Stream size                              : 8.22 MiB (0%)
Language                                 : Greek
Default                                  : No
Forced                                   : No

Subtitle #11
ID                                       : 13
Format                                   : VobSub
Muxing mode                              : zlib
Codec ID                                 : S_VOBSUB
Codec ID/Info                            : Picture based subtitle format used on DVDs
Duration                                 : 2 h 20 min
Bit rate                                 : 6 986 b/s
Count of elements                        : 1079
Stream size                              : 7.02 MiB (0%)
Language                                 : Spanish
Default                                  : No
Forced                                   : No

Subtitle #12
ID                                       : 14
Format                                   : VobSub
Muxing mode                              : zlib
Codec ID                                 : S_VOBSUB
Codec ID/Info                            : Picture based subtitle format used on DVDs
Duration                                 : 2 h 15 min
Bit rate                                 : 8 064 b/s
Count of elements                        : 1558
Stream size                              : 7.81 MiB (0%)
Language                                 : Spanish
Default                                  : No
Forced                                   : No

Subtitle #13
ID                                       : 15
Format                                   : VobSub
Muxing mode                              : zlib
Codec ID                                 : S_VOBSUB
Codec ID/Info                            : Picture based subtitle format used on DVDs
Duration                                 : 2 h 19 min
Bit rate                                 : 6 744 b/s
Count of elements                        : 1432
Stream size                              : 6.75 MiB (0%)
Language                                 : French
Default                                  : No
Forced                                   : No

Subtitle #14
ID                                       : 16
Format                                   : VobSub
Muxing mode                              : zlib
Codec ID                                 : S_VOBSUB
Codec ID/Info                            : Picture based subtitle format used on DVDs
Duration                                 : 2 h 15 min
Bit rate                                 : 6 011 b/s
Count of elements                        : 1485
Stream size                              : 5.82 MiB (0%)
Language                                 : Hindi
Default                                  : No
Forced                                   : No

Subtitle #15
ID                                       : 17
Format                                   : VobSub
Muxing mode                              : zlib
Codec ID                                 : S_VOBSUB
Codec ID/Info                            : Picture based subtitle format used on DVDs
Duration                                 : 2 h 14 min
Bit rate                                 : 7 596 b/s
Count of elements                        : 1456
Stream size                              : 7.32 MiB (0%)
Language                                 : Icelandic
Default                                  : No
Forced                                   : No

Subtitle #16
ID                                       : 18
Format                                   : VobSub
Muxing mode                              : zlib
Codec ID                                 : S_VOBSUB
Codec ID/Info                            : Picture based subtitle format used on DVDs
Duration                                 : 2 h 19 min
Bit rate                                 : 6 990 b/s
Count of elements                        : 1140
Stream size                              : 6.99 MiB (0%)
Language                                 : Italian
Default                                  : No
Forced                                   : No

Subtitle #17
ID                                       : 19
Format                                   : VobSub
Muxing mode                              : zlib
Codec ID                                 : S_VOBSUB
Codec ID/Info                            : Picture based subtitle format used on DVDs
Duration                                 : 2 h 14 min
Bit rate                                 : 5 440 b/s
Count of elements                        : 1325
Stream size                              : 5.24 MiB (0%)
Language                                 : Japanese
Default                                  : No
Forced                                   : No

Subtitle #18
ID                                       : 20
Format                                   : VobSub
Muxing mode                              : zlib
Codec ID                                 : S_VOBSUB
Codec ID/Info                            : Picture based subtitle format used on DVDs
Duration                                 : 2 h 15 min
Bit rate                                 : 5 264 b/s
Count of elements                        : 1480
Stream size                              : 5.10 MiB (0%)
Language                                 : Korean
Default                                  : No
Forced                                   : No

Subtitle #19
ID                                       : 21
Format                                   : VobSub
Muxing mode                              : zlib
Codec ID                                 : S_VOBSUB
Codec ID/Info                            : Picture based subtitle format used on DVDs
Duration                                 : 2 h 15 min
Bit rate                                 : 7 008 b/s
Count of elements                        : 1481
Stream size                              : 6.78 MiB (0%)
Language                                 : Hungarian
Default                                  : No
Forced                                   : No

Subtitle #20
ID                                       : 22
Format                                   : VobSub
Muxing mode                              : zlib
Codec ID                                 : S_VOBSUB
Codec ID/Info                            : Picture based subtitle format used on DVDs
Duration                                 : 2 h 15 min
Bit rate                                 : 6 045 b/s
Count of elements                        : 1486
Stream size                              : 5.85 MiB (0%)
Language                                 : Chinese
Default                                  : No
Forced                                   : No

Subtitle #21
ID                                       : 23
Format                                   : VobSub
Muxing mode                              : zlib
Codec ID                                 : S_VOBSUB
Codec ID/Info                            : Picture based subtitle format used on DVDs
Duration                                 : 2 h 19 min
Bit rate                                 : 7 100 b/s
Count of elements                        : 1085
Stream size                              : 7.10 MiB (0%)
Language                                 : Dutch
Default                                  : No
Forced                                   : No

Subtitle #22
ID                                       : 24
Format                                   : VobSub
Muxing mode                              : zlib
Codec ID                                 : S_VOBSUB
Codec ID/Info                            : Picture based subtitle format used on DVDs
Duration                                 : 2 h 19 min
Bit rate                                 : 5 564 b/s
Count of elements                        : 923
Stream size                              : 5.56 MiB (0%)
Language                                 : Norwegian Bokmal
Default                                  : No
Forced                                   : No

Subtitle #23
ID                                       : 25
Format                                   : VobSub
Muxing mode                              : zlib
Codec ID                                 : S_VOBSUB
Codec ID/Info                            : Picture based subtitle format used on DVDs
Duration                                 : 2 h 15 min
Bit rate                                 : 7 384 b/s
Count of elements                        : 1454
Stream size                              : 7.15 MiB (0%)
Language                                 : Polish
Default                                  : No
Forced                                   : No

Subtitle #24
ID                                       : 26
Format                                   : VobSub
Muxing mode                              : zlib
Codec ID                                 : S_VOBSUB
Codec ID/Info                            : Picture based subtitle format used on DVDs
Duration                                 : 2 h 20 min
Bit rate                                 : 7 246 b/s
Count of elements                        : 1497
Stream size                              : 7.29 MiB (0%)
Language                                 : Portuguese
Default                                  : No
Forced                                   : No

Subtitle #25
ID                                       : 27
Format                                   : VobSub
Muxing mode                              : zlib
Codec ID                                 : S_VOBSUB
Codec ID/Info                            : Picture based subtitle format used on DVDs
Duration                                 : 2 h 15 min
Bit rate                                 : 8 315 b/s
Count of elements                        : 1478
Stream size                              : 8.05 MiB (0%)
Language                                 : Portuguese
Default                                  : No
Forced                                   : No

Subtitle #26
ID                                       : 28
Format                                   : VobSub
Muxing mode                              : zlib
Codec ID                                 : S_VOBSUB
Codec ID/Info                            : Picture based subtitle format used on DVDs
Duration                                 : 2 h 15 min
Bit rate                                 : 7 995 b/s
Count of elements                        : 1486
Stream size                              : 7.74 MiB (0%)
Language                                 : Russian
Default                                  : No
Forced                                   : No

Subtitle #27
ID                                       : 29
Format                                   : VobSub
Muxing mode                              : zlib
Codec ID                                 : S_VOBSUB
Codec ID/Info                            : Picture based subtitle format used on DVDs
Duration                                 : 2 h 15 min
Bit rate                                 : 7 414 b/s
Count of elements                        : 1474
Stream size                              : 7.18 MiB (0%)
Language                                 : Romanian
Default                                  : No
Forced                                   : No

Subtitle #28
ID                                       : 30
Format                                   : VobSub
Muxing mode                              : zlib
Codec ID                                 : S_VOBSUB
Codec ID/Info                            : Picture based subtitle format used on DVDs
Duration                                 : 2 h 14 min
Bit rate                                 : 7 655 b/s
Count of elements                        : 1476
Stream size                              : 7.38 MiB (0%)
Language                                 : Slovak
Default                                  : No
Forced                                   : No

Subtitle #29
ID                                       : 31
Format                                   : VobSub
Muxing mode                              : zlib
Codec ID                                 : S_VOBSUB
Codec ID/Info                            : Picture based subtitle format used on DVDs
Duration                                 : 2 h 19 min
Bit rate                                 : 6 683 b/s
Count of elements                        : 1060
Stream size                              : 6.69 MiB (0%)
Language                                 : Finnish
Default                                  : No
Forced                                   : No

Subtitle #30
ID                                       : 32
Format                                   : VobSub
Muxing mode                              : zlib
Codec ID                                 : S_VOBSUB
Codec ID/Info                            : Picture based subtitle format used on DVDs
Duration                                 : 2 h 19 min
Bit rate                                 : 5 725 b/s
Count of elements                        : 977
Stream size                              : 5.73 MiB (0%)
Language                                 : Swedish
Default                                  : No
Forced                                   : No

Subtitle #31
ID                                       : 33
Format                                   : VobSub
Muxing mode                              : zlib
Codec ID                                 : S_VOBSUB
Codec ID/Info                            : Picture based subtitle format used on DVDs
Duration                                 : 2 h 14 min
Bit rate                                 : 6 700 b/s
Count of elements                        : 1484
Stream size                              : 6.46 MiB (0%)
Language                                 : Thai
Default                                  : No
Forced                                   : No

Subtitle #32
ID                                       : 34
Format                                   : VobSub
Muxing mode                              : zlib
Codec ID                                 : S_VOBSUB
Codec ID/Info                            : Picture based subtitle format used on DVDs
Duration                                 : 2 h 15 min
Bit rate                                 : 7 487 b/s
Count of elements                        : 1372
Stream size                              : 7.25 MiB (0%)
Language                                 : Turkish
Default                                  : No
Forced                                   : No

Menu
00:00:00.000                             : en:Chapter 1
00:07:50.636                             : en:Chapter 2
00:12:19.822                             : en:Chapter 3
00:15:47.071                             : en:Chapter 4
00:18:46.041                             : en:Chapter 5
00:25:37.035                             : en:Chapter 6
00:30:01.549                             : en:Chapter 7
00:34:01.414                             : en:Chapter 8
00:40:06.153                             : en:Chapter 9
00:49:24.419                             : en:Chapter 10
00:52:48.582                             : en:Chapter 11
01:02:33.374                             : en:Chapter 12
01:08:44.537                             : en:Chapter 13
01:11:20.901                             : en:Chapter 14
01:20:49.803                             : en:Chapter 15
01:25:50.145                             : en:Chapter 16
01:29:02.754                             : en:Chapter 17
01:36:25.738                             : en:Chapter 18
01:43:22.779                             : en:Chapter 19
01:46:46.983                             : en:Chapter 20
01:54:20.228                             : en:Chapter 21
02:01:06.092                             : en:Chapter 22
02:10:16.475                             : en:Chapter 23

Source Information
Release: Clear.and.Present.Danger.1994.2160p.BluRay.x265.10bit.SDR.TrueHD.5.1-SWTYBLZ  (56.7 GB)


UTR wrote:

Note From UTR
We have no issue with individuals posting or re-uploading our torrents on a platform we aren't on. However, if this is something you'd like to do, please do so in a 'as-is' format. We ask that you do not create a new torrent, include all descriptions you see above including the UTR logo, tags, notes and screenshots. If you'd like to become a permanent poster on a website we don't post to, feel free to get in contact with a UniTeam member.

If possible please donate: BTC 1QA5fum5AyXvWzdVCkQzUNvw3Ef15fHRaR


Category:Movies > HEVC/x265
Lang:English  English
Total Size:6.39 GB
Info Hash:fa4fcd09846c0a48929d53f4297aaa0ff8291b93
Added By:UTR
Date Added:30-09-2018 08:34:45

Files

File List: 
 File Size
Clear and Present Danger 1994 (2160p x265 10bit FS80 Joy).mkv6.39 GB



Loading...
Comments

There are currently no comments. Be the first one to write something !

Disclaimer: None of the files shown here are actually hosted or transmitted by this server. The links are provided solely by this site's users. The site moderation is also a service provided by the site's users. The administrator of this site (ettv.tv) cannot be held responsible for what its users post, or any other actions of its users. You may not use this site to distribute or download any material when you do not have the legal rights to do so. It is your own responsibility to adhere to these terms.

Sitemap